<?xml version="1.0" standalone="no"?>
<!DOCTYPE svg PUBLIC "-//W3C//DTD SVG 1.1//EN" "http://www.w3.org/Graphics/SVG/1.1/DTD/svg11.dtd" >
<svg xmlns="http://www.w3.org/2000/svg">
<metadata>
Created by FontForge 20120731 at Fri Mar 24 14:37:02 2017
 By admin
</metadata>
<defs>
<font id="iconfont" horiz-adv-x="1024" >
  <font-face 
    font-family="iconfont"
    font-weight="500"
    font-stretch="normal"
    units-per-em="1024"
    panose-1="2 0 6 3 0 0 0 0 0 0"
    ascent="896"
    descent="-128"
    x-height="792"
    bbox="-1.14286 -212 1024 896"
    underline-thickness="0"
    underline-position="0"
    unicode-range="U+0078-E656"
  />
<missing-glyph 
 />
    <glyph glyph-name=".notdef" 
 />
    <glyph glyph-name=".notdef" 
 />
    <glyph glyph-name=".null" horiz-adv-x="0" 
 />
    <glyph glyph-name="nonmarkingreturn" horiz-adv-x="341" 
 />
    <glyph glyph-name="x" unicode="x" horiz-adv-x="1001" 
d="M281 543q-27 -1 -53 -1h-83q-18 0 -36.5 -6t-32.5 -18.5t-23 -32t-9 -45.5v-76h912v41q0 16 -0.5 30t-0.5 18q0 13 -5 29t-17 29.5t-31.5 22.5t-49.5 9h-133v-97h-438v97zM955 310v-52q0 -23 0.5 -52t0.5 -58t-10.5 -47.5t-26 -30t-33 -16t-31.5 -4.5q-14 -1 -29.5 -0.5
t-29.5 0.5h-32l-45 128h-439l-44 -128h-29h-34q-20 0 -45 1q-25 0 -41 9.5t-25.5 23t-13.5 29.5t-4 30v167h911zM163 247q-12 0 -21 -8.5t-9 -21.5t9 -21.5t21 -8.5q13 0 22 8.5t9 21.5t-9 21.5t-22 8.5zM316 123q-8 -26 -14 -48q-5 -19 -10.5 -37t-7.5 -25t-3 -15t1 -14.5
t9.5 -10.5t21.5 -4h37h67h81h80h64h36q23 0 34 12t2 38q-5 13 -9.5 30.5t-9.5 34.5q-5 19 -11 39h-368zM336 498v228q0 11 2.5 23t10 21.5t20.5 15.5t34 6h188q31 0 51.5 -14.5t20.5 -52.5v-227h-327z" />
    <glyph glyph-name="shuaxin" unicode="&#xe60d;" 
d="M692 133q-85 -61 -190 -59q-13 0 -26 1q-2 0 -6 0.5t-5 0.5q-14 2 -20 3q-2 1 -13 3q-13 3 -19 5q-1 0 -9 3q-14 5 -22 9q-1 0 -5 2q-15 6 -25 12h-1q-41 23 -74 56q0 1 -1 1v1q-10 10 -19 21q-1 1 -2 2.5t-2 2.5q-71 90 -71 205h75q3 0 4.5 2.5t0.5 5.5l-127 192
q-1 3 -4 3t-5 -3l-126 -192q-2 -3 -0.5 -5.5t4.5 -2.5h75q0 -135 76 -245q0 -1 0.5 -2t1.5 -1q2 -4 15 -21q1 0 3 -3t3 -4q10 -13 25 -28l2 -2q43 -43 96 -73q2 -1 3 -2q13 -7 31 -15q1 0 3.5 -1.5t4.5 -1.5q11 -5 27 -11q10 -3 14 -4q9 -3 24 -6q14 -4 17 -4q1 0 3.5 -1
t3.5 -1q5 -1 24 -3q1 0 4 -0.5t4 -0.5q24 -3 43 -3q133 0 244 79q17 12 21 33t-8.5 39t-33 21.5t-38.5 -8.5v0zM933 402q0 133 -75 244l-1 1.5l-1 1.5q-6 8 -19 25l-1 1t-1 2q-65 80 -159 121q-1 0 -3 1l-2 1q-13 5 -31 11l-4 1.5t-6 2.5q-11 3 -27 7q-13 3 -15 3
q-2 1 -4 1.5t-4 0.5q-4 1 -11.5 1.5t-8.5 1.5q-1 0 -6 0.5t-8 0.5q-15 2 -34 2q-1 0 -3 0.5t-3 0.5l-0.5 -0.5l-0.5 -0.5q-134 0 -243 -78q-18 -12 -21.5 -33t8.5 -38.5t33 -21.5t38 8q85 61 189 60q14 0 28 -2q2 0 5 -0.5t4 -0.5q13 -2 23 -3q0 -1 9 -3q13 -3 22 -5
q2 -1 4 -1.5t3 -1.5q14 -4 25 -9l1 -0.5l1 -0.5q72 -31 122 -93h0.5h0.5q73 -91 73 -208h-75q-3 0 -4.5 -3t0.5 -6l126 -192q2 -2 5 -2t4 2l127 192q1 3 -0.5 6t-4.5 3h-75z" />
    <glyph glyph-name="shujuku" unicode="&#xe600;" 
d="M429 -120q-100 0 -185.5 21t-135 56.5t-49.5 76.5v3v4v3v0v90q51 -49 150.5 -79.5t219.5 -30.5q64 0 124 9q2 21 7 42q-63 -10 -131 -10q-100 0 -185.5 21t-135 56.5t-49.5 76.5v3v4v3v0v90q51 -49 150.5 -79.5t219.5 -30.5t219.5 30.5t150.5 79.5v-48h10q16 0 31 -2v372
v0q-23 70 -140.5 117t-270.5 47t-270.5 -47t-140.5 -117v0v-637v0q24 -72 140 -121t271 -47q95 1 178 20q-16 21 -25 38q-73 -14 -153 -14zM429.5 764q100.5 0 185.5 -20.5t134.5 -56t49.5 -77.5t-49.5 -77.5t-134.5 -56t-185.5 -20.5t-186 20.5t-135 56t-49.5 77.5
t49.5 77.5t135 56t186 20.5zM59 414v111q51 -50 150.5 -80t219.5 -30t219.5 30t150.5 80v-111v0v-10q0 -41 -49.5 -76.5t-134.5 -56.5t-185.5 -21t-186 21t-135 56.5t-49.5 76.5v10v0zM799 230q-85 0 -145 -60.5t-60 -145.5t60 -145t145 -60t145.5 60t60.5 145t-60.5 145.5
t-145.5 60.5zM799 -140q-68 0 -116 48t-48 116t48 116.5t116 48.5t116.5 -48.5t48.5 -116.5t-48.5 -116t-116.5 -48zM820 127h-41v-82h-83v-41h83v-83h41v83h82v41h-82v82z" />
    <glyph glyph-name="shanchu" unicode="&#xe601;" 
d="M622 7q-15 0 -26 11t-11 26v402q0 15 11 26t26 11t25.5 -11t10.5 -26v-402q0 -15 -10.5 -26t-25.5 -11v0v0zM402 7q-15 0 -25.5 11t-10.5 26v402q0 15 10.5 26t25.5 11t26 -11t11 -26v-402q0 -15 -11 -26t-26 -11v0v0zM987 629h-182v73q0 46 -32 78t-77 32h-367
q-45 0 -77.5 -32t-32.5 -78v-73h-182q-16 0 -26.5 -10.5t-10.5 -26t10.5 -26t26.5 -10.5h950q16 0 26.5 10.5t10.5 26t-10.5 26t-26.5 10.5v0v0zM293 702q0 15 10.5 26t25.5 11h367q15 0 25 -10.5t10 -26.5v-73h-438v73v0zM768 -212h-512q-45 0 -77.5 32t-32.5 78v549
q0 15 11 25.5t26 10.5t26 -10.5t11 -25.5v-549q0 -15 10.5 -26t25.5 -11h512q15 0 26 11t11 26v547q0 15 10.5 26t25.5 11t26 -11t11 -26v-547q0 -46 -32 -78t-78 -32v0v0z" />
    <glyph glyph-name="wenzhang" unicode="&#xe602;" 
d="M715 886h-561q-30 0 -52 -21t-22 -50v-869q0 -29 22 -50t52 -21h710q31 0 52.5 21t21.5 50v690zM840 637h-150v168zM849 -48h-679q-5 0 -8.5 2.5t-3.5 5.5v841q0 4 3.5 6.5t8.5 2.5h462v-183q0 -25 18 -43t43 -18h169v-606q0 -3 -4 -5.5t-9 -2.5v0zM849 -48zM567 578
q0 -16 -11.5 -27.5t-27.5 -11.5h-210q-16 0 -27.5 11.5t-11.5 27.5v0q0 16 11.5 27.5t27.5 11.5h210q16 0 27.5 -11.5t11.5 -27.5v0zM749 385q0 -16 -11 -27.5t-28 -11.5h-389q-16 0 -27.5 11.5t-11.5 27.5v0q0 16 11.5 27.5t27.5 11.5h389q16 0 27.5 -11.5t11.5 -27.5v0z
M749 192q0 -16 -11 -27.5t-28 -11.5h-389q-16 0 -27.5 11.5t-11.5 27.5v0q0 16 11.5 27.5t27.5 11.5h389q16 0 27.5 -11.5t11.5 -27.5v0z" />
    <glyph glyph-name="lianjie" unicode="&#xe60c;" 
d="M119 384q0 62 44 106t106 44h194v93h-194q-100 0 -171 -71.5t-71 -171.5t71 -171.5t171 -71.5h194v93h-194q-62 0 -106 44t-44 106zM318 335h388v98h-388v-98zM755 627h-194v-93h194q62 0 106 -44t44 -106t-44 -106t-106 -44h-194v-93h194q100 0 171 71.5t71 171.5
t-71 171.5t-171 71.5z" />
    <glyph glyph-name="caidan" unicode="&#xe60e;" 
d="M961 702h-896v128h896v-128zM65 322v128h896v-128h-896zM65 -65v128h896v-128h-896z" />
    <glyph glyph-name="youjian" unicode="&#xe603;" 
d="M902 655h-798q-35 0 -60 -23.5t-25 -55.5v-475q0 -32 25 -55.5t60 -23.5h798q36 0 61 23.5t25 55.5v475q0 32 -25 55.5t-61 23.5v0v0zM76 101v464l251 -232l-251 -233v1v0zM117 602h773l-373 -345q-14 -12 -27 0zM368 296l100 -91q15 -14 35.5 -14t35.5 14l101 91
l239 -221h-750zM681 333h-2l252 232v-463zM681 333z" />
    <glyph glyph-name="tuijian" unicode="&#xe604;" 
d="M1013 574l-489 -279q-5 -3 -10.5 -3t-10.5 3l-492 281q-11 6 -11 19t11 19l489 279q10 6 20 0l493 -281q10 -6 10 -19t-10 -19zM510 819l-403 -217l407 -233l415 224zM32 420l482 -276l478 274q8 4 16 1.5t13 -10.5q4 -7 1.5 -31.5t-9.5 -28.5l-489 -280q-5 -2 -10.5 -2
t-10.5 2l-492 282q-7 4 -10 28.5t2 31.5q4 8 12.5 10.5t16.5 -1.5zM32 225l482 -275l478 273q8 5 16 2.5t13 -10.5q4 -8 1.5 -32t-9.5 -28l-489 -280q-5 -3 -10.5 -3t-10.5 3l-492 282q-7 4 -10 28t2 32q4 8 12.5 10.5t16.5 -2.5z" />
    <glyph glyph-name="msg" unicode="&#xe605;" 
d="M551 -111q-7 0 -13 3q-18 9 -18 29v155h-114q-109 0 -201.5 54t-146.5 146.5t-54 201.5t54 201.5t146.5 146.5t201.5 54h213q109 0 201.5 -54t146.5 -146.5t54 -201.5q0 -132 -78 -238q-8 -10 -20.5 -12t-23 5.5t-12.5 20.5t6 23q66 90 66 201q0 92 -45.5 170t-124 123.5
t-170.5 45.5h-213q-92 0 -170 -45.5t-123.5 -123.5t-45.5 -170t45.5 -170t123.5 -123.5t170 -45.5h145q13 0 22 -9t9 -22v-117l228 202q10 9 23 8t21.5 -10.5t8 -22.5t-10.5 -22l-280 -249q-9 -8 -21 -8v0zM362 478q0 -24 -17 -41t-41 -17t-41 17t-17 41t17 41t41 17t41 -17
t17 -41v0zM513 536q-24 0 -41.5 -17t-17.5 -41t17.5 -41t41.5 -17t41 17t17 41t-17 41t-41 17v0zM721 536q-24 0 -41 -17t-17 -41t17 -41t41 -17t41 17t17 41t-17 41t-41 17v0zM721 536z" />
    <glyph glyph-name="userpro" unicode="&#xe606;" 
d="M993 -70q-5 90 -64 150q-40 41 -116 73q-15 7 -43 18q-42 17 -58 25q-28 14 -36 26q-1 24 -1 58q2 3 4 5q10 14 20 35q13 26 20 59q10 5 17 14q23 29 29 77q4 34 -13 63q23 81 18 149q-5 65 -36 108q-32 44 -92 59q-43 46 -132 46h-1q-85 -2 -144 -35.5t-86 -94.5
q-38 -87 -6 -230q-18 -29 -14 -65q6 -48 29 -77q7 -9 18 -15q7 -33 20 -58q10 -20 21 -35q2 -2 4 -5q0 -34 -2 -57q-8 -13 -35 -27q-17 -8 -59 -25q-28 -11 -43 -18q-77 -33 -117 -73q-59 -60 -64 -150l-4 -57h970zM112 -50q10 48 38 76q31 32 92 58q11 5 49 19.5t56 24.5
q61 30 76 72l1 3l1 3q2 23 2 97v13l-12 6v1l-7 7q-8 10 -14 23q-16 32 -19 62l-2 19l-19 1q-3 0 -7 5q-8 11 -12 39q0 5 0.5 9.5t1.5 7t2.5 4.5t2 2.5l0.5 0.5l15 9l-5 17q-34 133 -2 206q35 81 160 83h1q32 0 54 -8t29 -20l5 -9l11 -1q41 -6 62 -35q18 -25 21 -69
q6 -67 -21 -146l-5 -18l15 -9l0.5 -0.5t2 -2.5t2.5 -4.5t1.5 -7t0.5 -9.5q-4 -28 -12 -39q-4 -5 -7 -5l-19 -1l-2 -19q-3 -29 -19 -62q-7 -14 -13 -23q-2 -3 -6 -7l-1 -1l-11 -6v-13q0 -74 2 -97v-3l1 -3q16 -43 75 -72q19 -10 57 -24.5t49 -19.5q60 -26 91 -58
q28 -28 38 -76h-800v0z" />
    <glyph glyph-name="leimulianjie" unicode="&#xe607;" 
d="M906 893h-249q-46 0 -79.5 -33.5t-33.5 -80.5v-250q0 -47 33.5 -80.5t79.5 -33.5h249q47 0 80.5 33.5t33.5 80.5v250q0 47 -33.5 80.5t-80.5 33.5v0zM950 536q0 -21 -15 -36v0v0q-15 -15 -36 -15h-234q-21 0 -36 15t-15 36v236q0 21 15 36.5t36 15.5h234q21 0 36 -15.5
t15 -36.5v-236zM365 893h-249q-47 0 -80 -33.5t-33 -80.5v-250q0 -47 33 -80.5t80 -33.5h249q47 0 80 33.5t33 80.5v250q0 47 -33 80.5t-80 33.5v0zM409 536q0 -21 -15 -36v0v0q-15 -15 -36 -15h-234q-22 0 -37 15t-15 36v236q0 21 15 36.5t37 15.5h234q21 0 36 -15.5
t15 -36.5v-236zM905 354h-249q-47 0 -80 -33.5t-33 -80.5v-250q0 -47 33 -80.5t80 -33.5h249q47 0 80 33.5t33 80.5v250q0 47 -33 80.5t-80 33.5v0zM949 -3q0 -21 -15 -36v0v0q-15 -16 -36 -16h-234q-22 0 -37 15.5t-15 36.5v236q0 21 15 36.5t37 15.5h234q21 0 36 -15.5
t15 -36.5v-236v0zM364 354h-249q-47 0 -80 -33.5t-33 -80.5v-250q0 -47 33 -80.5t80 -33.5h249q47 0 80 33.5t33 80.5v250q0 47 -33 80.5t-80 33.5v0zM408 -3q0 -21 -15 -36v0v0q-15 -16 -36 -16h-234q-22 0 -37 15.5t-15 36.5v236q0 21 15 36.5t37 15.5h234q21 0 36 -15.5
t15 -36.5v-236v0z" />
    <glyph glyph-name="list" unicode="&#xe608;" 
d="M896 -128h-768q-35 0 -60 25t-25 60v854q0 35 25 60t60 25h768q35 0 60 -25t25 -60v-854q0 -35 -25 -60t-60 -25zM896 811h-768v-854h768v854zM277 427h470q8 0 14.5 -6.5t6.5 -15.5v-42q0 -9 -6.5 -15.5t-14.5 -6.5h-470q-8 0 -14.5 6.5t-6.5 15.5v42q0 9 6.5 15.5
t14.5 6.5zM277 213h470q8 0 14.5 -6t6.5 -15v-43q0 -8 -6.5 -14.5t-14.5 -6.5h-470q-8 0 -14.5 6.5t-6.5 14.5v43q0 9 6.5 15t14.5 6zM747 555h-470q-8 0 -14.5 6t-6.5 15v43q0 9 6.5 15t14.5 6h470q8 0 14.5 -6t6.5 -15v-43q0 -9 -6.5 -15t-14.5 -6z" />
    <glyph glyph-name="remind" unicode="&#xe609;" 
d="M917 160q-48 42 -78.5 144t-30.5 229q0 96 -55.5 173t-143.5 107q-6 36 -33.5 59.5t-64 23.5t-63.5 -23.5t-33 -59.5q-88 -30 -143.5 -107t-55.5 -173q0 -127 -30.5 -229t-78.5 -144q-56 -49 -56 -123q0 -41 29 -70t70 -29h296q0 -41 12.5 -53.5t53.5 -12.5t53.5 12.5
t12.5 53.5h296q41 0 70 29t29 70q0 74 -56 123zM188 9q-21 0 -35 10t-18 23t-3 25.5t6 17.5q67 57 105 177.5t38 270.5q0 53 35 107.5t89 89t107 34.5t107 -34.5t88.5 -89t34.5 -107.5q0 -150 38.5 -270.5t104.5 -177.5q8 -7 9.5 -25t-12.5 -34.5t-46 -16.5h-648v0z" />
    <glyph glyph-name="Password" unicode="&#xe60a;" 
d="M916 -128h-808q-23 0 -38.5 16t-15.5 38v485q0 22 15.5 38t38.5 16h81v108q0 87 43 161.5t117.5 118t162.5 43.5t162.5 -43.5t117.5 -118t43 -161.5v-108h81q23 0 38.5 -16t15.5 -38v-485q0 -22 -15.5 -38t-38.5 -16zM781 573q0 111 -78.5 190t-190.5 79t-190.5 -79
t-78.5 -190v-108h538v108zM916 411h-808v-485h808v485zM512 303q11 0 19 -8t8 -19v-215q0 -12 -8 -19.5t-19 -7.5t-19 7.5t-8 19.5v215q0 11 8 19t19 8z" />
    <glyph glyph-name="Setup" unicode="&#xe60b;" 
d="M1020 447q1 -8 2 -23q2 -26 2 -40t-2 -40q-1 -15 -2 -23v0q-4 -27 -11 -57q-80 -20 -123.5 -96t-20.5 -155q-21 -19 -45 -37v0q-37 -28 -77 -49h-1q-20 -10 -41 -18q0 -1 -1 -1t-2 -1q-22 -8 -41 -14q-57 60 -145 60t-145 -60v0q-19 6 -41 14q-1 1 -2 1t-1 1
q-22 8 -41 18h-1q-40 21 -77 49v0q-24 18 -45 37q23 79 -20.5 155t-123.5 96q-7 30 -11 57v0q-1 7 -2 23q-2 26 -2 40t2 40q1 16 2 23v0q4 27 11 57q80 20 123.5 96t20.5 155q21 19 45 37v0q37 28 77 49h1q20 10 41 18q0 1 1 1t2 1q21 8 41 14q57 -60 145 -60t145 60
q19 -6 41 -14q1 -1 2 -1t1 -1q21 -8 41 -18h1q40 -21 77 -49v0q24 -18 45 -37q-23 -79 20.5 -155t123.5 -96q7 -30 11 -57v0zM963 462q-79 33 -124 111q-45 77 -34 162q-62 52 -135 79q-68 -52 -158 -52t-158 52q-73 -27 -135 -79q11 -85 -34 -162q-45 -78 -124 -111
q-7 -39 -7 -78t7 -78q79 -33 124 -111q45 -77 34 -162q62 -52 135 -79q69 52 158 52t158 -52q73 27 135 79q-11 85 34 162q45 78 124 111q7 40 7 78t-7 78zM512 196q-78 0 -133 55t-55 133t55 133t133 55t133 -55t55 -133t-55 -133t-133 -55zM512 518q-56 0 -95 -39t-39 -95
t39 -95t95 -39t95 39t39 95t-39 95t-95 39z" />
    <glyph glyph-name="shangsheng" unicode="&#xe628;" 
d="M512 672l-224 -288h149v-288h149l1 288h149z" />
    <glyph glyph-name="fajianxiang" unicode="&#xe639;" 
d="M895 469l-125 148q-46 57 -87 57h-342q-38 0 -87 -57l-125 -148q-21 -28 -21 -99v-206q0 -29 20.5 -49.5t49.5 -20.5h668q29 0 49.5 20.5t20.5 49.5v206q0 73 -21 99zM297 599q25 28 44 28h342q22 0 44 -28l125 -149q5 -7 3.5 -8.5t-9.5 -1.5h-218q-9 0 -16 -7t-7 -16
v-23q0 -39 -27.5 -66t-65.5 -27t-65.5 27t-27.5 66v23q0 9 -7 16t-16 7h-218q-14 0 -6 10zM869 164q0 -10 -6.5 -16.5t-16.5 -6.5h-668q-10 0 -16.5 6.5t-6.5 16.5v206q0 10 6.5 17t16.5 7h194q0 -58 41 -99t99 -41t99 41t41 99h194q10 0 16.5 -7t6.5 -17v-206z" />
    <glyph glyph-name="xiajiang" unicode="&#xe60f;" 
d="M512 96l224 288h-149v288h-149l-1 -288h-149z" />
    <glyph glyph-name="paixu" unicode="&#xe656;" 
d="M363.5 3q-8.5 0 -14.5 6t-6 15v679l-201 -170q-6 -5 -14.5 -4.5t-14 7t-5 15t7.5 13.5l234 198q6 5 14 5t14 -6t6 -14v-723q0 -9 -6 -15t-14.5 -6zM673 4l234 198q7 5 7.5 13.5t-5 15t-14 7.5t-14.5 -5l-201 -169v679q0 8 -6 14t-14.5 6t-14.5 -6t-6 -14v-724q0 -8 6 -14
t14 -6t14 5z" />
  </font>
</defs>
</svg>
